วันอังคารที่ 9 เมษายน พ.ศ. 2556

[1080p] [Mini-HD] Child's Play 6 :Curse of Chucky (2013) : คำสาปแค้นฝังหุ่น!!! (แค้นฝังหุ่น ภาค 6) [เสียง:ไทย 5.1,อังกฤษ DTS,5.1 - บรรยาย:ไทย,อังกฤษ]






TRAILER





Curse.of.Chucky.(2013).BluRay.1080p.DTS.x264.by.phum51.mkv
      Format : Matroska
      Format version : Version 2
      File size : 2.96 GiB
      Duration : 1h 36mn
      Overall bit rate : 4 368 Kbps
      Movie name : Curse.of.Chucky.(2013).BluRay.1080p.DTS.x264.by.phum51
      Encoded date : UTC 2013-10-10 06:47:44
      Writing application : mkvmerge v5.5.0 ('Healer') built on Apr  6 2012 21:43:24
      Writing library : libebml v1.2.3 + libmatroska v1.3.0
   Video #1
      ID : 1
      Format : AVC
      Format/Info : Advanced Video Codec
      Format profile : High@L4.1
      Format settings, CABAC : Yes
      Format settings, ReFrames : 4 frames
      Muxing mode : Header stripping
      Codec ID : V_MPEG4/ISO/AVC
      Duration : 1h 36mn
      Bit rate : 1 940 Kbps
      Nominal bit rate : 2 039 Kbps
      Width : 1 920 pixels
      Height : 1 080 pixels
      Display aspect ratio : 16:9
      Frame rate mode : Constant
      Frame rate : 23.976 fps
      Color space : YUV
      Chroma subsampling : 4:2:0
      Bit depth : 8 bits
      Scan type : Progressive
      Bits/(Pixel*Frame) : 0.039
      Stream size : 1.31 GiB (44%)
      Title : by phum51
      Writing library : x264 core 138 r2 9e941d1
      Encoding settings : cabac=1 / ref=4 / deblock=1:-1:-1 / analyse=0x3:0x133 / me=umh / subme=9 / psy=1 / psy_rd=1.00:0.15 / mixed_ref=1 / me_range=24 / chroma_me=1 / trellis=2 / 8x8dct=1 / cqm=0 / deadzone=21,11 / fast_pskip=0 / chroma_qp_offset=-3 / threads=18 / lookahead_threads=1 / sliced_threads=0 / nr=0 / decimate=1 / interlaced=0 / bluray_compat=0 / constrained_intra=0 / bframes=3 / b_pyramid=2 / b_adapt=2 / b_bias=0 / direct=3 / weightb=1 / open_gop=0 / weightp=2 / keyint=250 / keyint_min=23 / scenecut=40 / intra_refresh=0 / rc_lookahead=60 / rc=2pass / mbtree=1 / bitrate=2039 / ratetol=1.0 / qcomp=0.60 / qpmin=0 / qpmax=69 / qpstep=4 / cplxblur=20.0 / qblur=0.5 / vbv_maxrate=31250 / vbv_bufsize=31250 / nal_hrd=none / ip_ratio=1.40 / aq=1:1.00
      Language : English
      Default : Yes
      Forced : No
      Color primaries : BT.709
      Matrix coefficients : BT.709
   Audio #2
      ID : 2
      Format : DTS
      Format/Info : Digital Theater Systems
      Mode : 16
      Format settings, Endianness : Big
      Muxing mode : Header stripping
      Codec ID : A_DTS
      Duration : 1h 36mn
      Bit rate mode : Constant
      Bit rate : 1 509 Kbps
      Channel(s) : 6 channels
      Channel positions : Front: L C R, Side: L R, LFE
      Sampling rate : 48.0 KHz
      Bit depth : 24 bits
      Compression mode : Lossy
      Stream size : 1.02 GiB (35%)
      Title : DTS by phum51
      Language : English
      Default : No
      Forced : No
   Audio #3
      ID : 3
      Format : AC-3
      Format/Info : Audio Coding 3
      Mode extension : CM (complete main)
      Format settings, Endianness : Big
      Muxing mode : Header stripping
      Codec ID : A_AC3
      Duration : 1h 36mn
      Bit rate mode : Constant
      Bit rate : 448 Kbps
      Channel(s) : 6 channels
      Channel positions : Front: L C R, Side: L R, LFE
      Sampling rate : 48.0 KHz
      Bit depth : 16 bits
      Compression mode : Lossy
      Stream size : 311 MiB (10%)
      Title : 5.1 by phum51
      Language : English
      Default : No
      Forced : No
   Audio #4
      ID : 4
      Format : AC-3
      Format/Info : Audio Coding 3
      Mode extension : CM (complete main)
      Format settings, Endianness : Big
      Muxing mode : Header stripping
      Codec ID : A_AC3
      Duration : 1h 36mn
      Bit rate mode : Constant
      Bit rate : 384 Kbps
      Channel(s) : 6 channels
      Channel positions : Front: L C R, Side: L R, LFE
      Sampling rate : 48.0 KHz
      Bit depth : 16 bits
      Compression mode : Lossy
      Stream size : 266 MiB (9%)
      Title : 5.1 by phum51
      Language : Thai
      Default : Yes
      Forced : No
   Text #5
      ID : 5
      Format : VobSub
      Muxing mode : zlib
      Codec ID : S_VOBSUB
      Codec ID/Info : The same subtitle format used on DVDs
      Title : by phum51
      Language : English
      Default : No
      Forced : No
   Text #6
      ID : 6
      Format : VobSub
      Muxing mode : zlib
      Codec ID : S_VOBSUB
      Codec ID/Info : The same subtitle format used on DVDs
      Title : by phum51
      Language : Thai
      Default : Yes
      Forced : No


SCREENSHOT



เรื่องย่อ

มันกลับมา!! จากทีมผู้สร้างที่เคยพาคุณเผชิญหน้ากับชัคกี้ ตุ๊กตาผีที่ถูกสิงโดยวิญญาณของฆาตกรฆ่าต่อเนื่อง! เมื่อพัสดุลึกลับถูกส่งมาที่บ้านของนิก้า (ฟิโอน่า ดูริฟ, True Blood) เธอยังไม่ได้คิดอะไรมากมายนัก จนเมื่อแม่ของเธอเสียชีวิตอย่างลึกลับ นิก้าเริ่มสงสัยว่าตุ๊กตาเด็กผู้ชายผมแดงพูดได้ของหลานสาวที่มาอาศัยอยู่ด้วย อาจเป็นตัวการของความสยองนองเลือดครั้งนี้!?
กับการกลับมาของตุ๊กตาตัวโปรดของคนอเมริกัน ให้เสียงต้นฉบับโดยดาราต้นตำรับ แบรด ดูริฟ ที่คราวนี้ชัคกี้จัดเต็มความโหดสยองเต็มที่!!